Membuka File .APE di Ubuntu

Dunia komputer memang kompleks, rumit, complicated, sekaligus penuh misteri. Banyak sekali hal baru yang menarik untuk dipelajari. Salah satunya adalah ini.

Saya baru saja mendapat “kiriman” sebuah file audio terkompresi dalam format .rar. Ketika diekstrak, ternyata menghasilkan tiga buah file, yaitu .ape, .cue, dan .log. File .ape berukuran 324.2MB, sedangkan dua file lainnya masing-masing berukuran 1.5KB dan 2.2KB.

Ketika melihat file .cue, awalnya saya pikir file ini bisa dengan mudah di-mount/dibuka menggunakan program semacam Furius ISO mount atau sejenisnya. Tidak! Ternyata tebakan saya salah! Ini bukan file .cue seperti biasa.

Selidik punya selidik, file .cue (dalam kasus ini) bisa dibuka menggunakan program text editor, berisi daftar judul lagu, nama album, penyanyi, serta nomor (semacam timecode?) awal dan akhir track setiap lagu. Sedangkan file .ape berisi track lagu yang sesungguhnya.

Oiya.., .ape adalah format file audio terkompresi Monkey’s Audio. Menurut data dari beberapa sumber yang saya peroleh, file .ape tidak bisa dibuka/dimainkan langsung, melainkan harus dikonversi terlebih dahulu menjadi format audio lain, yaitu .wav. Dari sana, file .wav yang berisi sejumlah track lagu dipecah-pecah/dipisah-pisah per track menggunakan program audio editor, semisal Audacity, dan disimpan menjadi file tersendiri.

Hmm…, terdengar sulit, bukan? Baiklah, mari kita mulai dari mengubah file .ape menjadi .wav. Untuk keperluan ini, kita bisa menggunakan Mac (Monkey’s Audio Console front end).

INSTALL MAC:

  1. Download Mac di sini.
  2. Buka konsole, masuk ke direktori di mana file tadi disimpan, kemudian ketik sudo dpkg -i mac-3.99-u4_b3-1_i386.deb

Cara lain menginstall Mac terbaru:

  1. Ketik sudo apt-get install build-essential
  2. Ketik sudo apt-get install nasm
  3. Download Mac versi terbaru di sini (NOTE: Saat tulisan ini dibuat, Mac terbaru versi 3.99-u4-b5).
  4. Buka konsol, masuk ke direktori di mana file tadi disimpan
  5. Ketik tar -zxvf mac-3.99-u4-b5.tar.gz
  6. Ketik cd mac-3.99-u4-b5
  7. Ketik ./configure, kemudian make, kemudian sudo make install
  8. Sampai di sini, Mac terbaru sudah terinstall.

KONVERSI FILE .APE MENJADI .WAV:

Untuk mengubah file .ape menjadi .wav, buka konsol dan ketik mac “nama_file.ape” “nama_file.wav” -d

eko@eko-desktop:~/Downloads/Lagu$ mac “ini_laguku.ape” “ini_laguku.wav” -d
— Monkey’s Audio Console Front End (v 3.99) (c) Matthew T. Ashland —
Decompressing…
Progress: 100.0% (0.0 seconds remaining, 74.5 seconds total)
Success…
eko@eko-desktop:~/Downloads/Lagu$

MENGEDIT FILE .WAV:

File .wav hasil konversi di atas biasanya terdiri atas beberapa track lagu (sekitar 10-13 lagu). Untuk memisahkannya menjadi track terpisah untuk setiap lagu, kita bisa menggunakan program audio editor, semisal Audacity.

  1. Buka program Audacity (klik Applications > Sound & Video > Audacity). Jika belum ada/terinstall, install dulu (musti online). Caranya: ketik sudo apt-get install audacity
  2. Buka file .cue menggunakan text editor (gedit). Ini sebagai panduan kita dalam memotong track lagu. Isinya kurang lebih seperti ini:
  3. REM GENRE Rock
    REM DATE 2004
    REM DISCID AA0C940C
    REM COMMENT “ExactAudioCopy v0.99pb3”
    PERFORMER “Nama penyanyi”
    TITLE “Judul album”
    FILE “nama_file_APE.ape” WAVE
    TRACK 01 AUDIO
    TITLE “Judul lagu ke-1”
    PERFORMER “Nama penyanyi”
    INDEX 01 00:00:00

    TRACK 02 AUDIO
    TITLE “Judul lagu ke-2”
    PERFORMER “Nama penyanyi”
    INDEX 01 05:32:32
    TRACK 03 AUDIO
    TITLE “Judul lagu ke-3”
    PERFORMER “Nama penyanyi”
    INDEX 01 10:09:70

    TRACK 04 AUDIO
    TITLE “Judul lagu ke-4”
    PERFORMER “Nama penyanyi”
    INDEX 01 15:02:04
    TRACK 05 AUDIO
    TITLE “Judul lagu ke-5”
    PERFORMER “Nama penyanyi”
    INDEX 01 18:27:12

    TRACK 06 AUDIO
    TITLE “Judul lagu ke-6”
    PERFORMER “Nama penyanyi”
    INDEX 01 23:05:52
    TRACK 07 AUDIO
    TITLE “Judul lagu ke-7”
    PERFORMER “Nama penyanyi”
    INDEX 01 26:36:32

    TRACK 08 AUDIO
    TITLE “Judul lagu ke-8”
    PERFORMER “Nama penyanyi”
    INDEX 01 32:18:40
    TRACK 09 AUDIO
    TITLE “Judul lagu ke-9”
    PERFORMER “Nama penyanyi”
    INDEX 01 37:05:15

    TRACK 10 AUDIO
    TITLE “Judul lagu ke-10”
    PERFORMER “Nama penyanyi”
    INDEX 01 42:53:48
    TRACK 11 AUDIO
    TITLE “Judul lagu ke-11”
    PERFORMER “Nama penyanyi”
    INDEX 01 46:28:34

    TRACK 12 AUDIO
    TITLE “Judul lagu ke-12”
    PERFORMER “Nama penyanyi”
    INDEX 01 49:21:68

  4. Buka file .wav hasil konversi tadi menggunakan Audacity.
  5. Audacity

    Audacity

  6. Klik dropdown Selection start dan pilih format hh:mm:ss + milliseconds.
  7. hh-mm-ss-milliseconds

    hh-mm-ss-milliseconds

  8. Untuk memotong lagu pertama, masukkan angka 00:00:00 di bagian start, dan timecode (???) awal lagu berikutnya pada bagian end. Contoh: sesuai dengan isi file .cue di atas, maka lagu pertama, start: 00:00:00, end: 05:32:32. (Lihat bagian/tulisan INDEX …. dari file .cue di atas).
  9. selection-start

    selection-start

  10. Klik menu File > Export Selection.
  11. Ketik nama file yang diinginkan.
  12. Isi data metadata yang sesuai. Jika tidak, klik saja tombol OK.
  13. Edit metadata

    Edit metadata

    Menyimpan file

    Menyimpan file

  14. Ulangi langkah-langkah di atas untuk lagu berikutnya. Untuk lagu ke-2, start: 05:32:32, end: 10:09:70. Untuk lagu ke-3, start: 10:09:70, end: 15:02:04. Begitu seterusnya.

Bagaimana, susah bukan?😀 Selamat mencoba…

REF: Monkey’s Audio, APE tag, Using Monkey’s Audio (ape) files in Ubuntu, APE info.

Leave a Reply

Fill in your details below or click an icon to log in:

WordPress.com Logo

You are commenting using your WordPress.com account. Log Out / Change )

Twitter picture

You are commenting using your Twitter account. Log Out / Change )

Facebook photo

You are commenting using your Facebook account. Log Out / Change )

Google+ photo

You are commenting using your Google+ account. Log Out / Change )

Connecting to %s